Home » Forexs, Tradings, Stocks » Angel Traders – Forex Strategy Course

Angel Traders – Forex Strategy Course

Angel Traders – Forex Strategy Course
Original Price: $N/A
Yours FREE DOWNLOAD!!!
Author: Angel Traders
Sale Page :_N/A

With AngelTraders you will learn everything that you need to know about Forex. Trade like a Professional I am an experienced Forex Trader committed to helping learn the Forex market like you never thought possible. I specialize in Scalping the Forex market, however the strategy I teach works from the minute chart all the way up to the monthly chart.

After assessing the market for many of hours I discovered and put together a strategy where I have a very high win percentage. Not only have I learned to control my trading psychology, But I have learned and mastered pattern recognition in the Forex Market.No matter what your experience level or location, my training course will provide you with a highly in-depth and concrete understanding of FOREX markets and how to trade them profitably. With knowledge that can be applied also to commodities & futures markets, you will be well prepared to trade confidently and professionally. My ongoing mentorship post-training will ensure you’re never left alone on your journey to profitability!

General
Complete name : 04. Sharkfin Course.mp4
Format : MPEG-4
Format profile : Base Media
Codec ID : isom (isom/iso2/avc1/mp41)
File size : 185 MiB
Duration : 17 min 10 s
Overall bit rate mode : Variable
Overall bit rate : 1 502 kb/s
Encoded date : UTC 2018-05-21 10:54:36
Tagged date : UTC 2018-05-21 10:54:36
Writing application : Lavf51.12.1

Video
ID : 1
Format : AVC
Format/Info : Advanced Video Codec
Format profile : [email protected]
Format settings : CABAC / 1 Ref Frames
Format settings, CABAC : Yes
Format settings, RefFrames : 1 frame
Format settings, GOP : M=1, N=12
Codec ID : avc1
Codec ID/Info : Advanced Video Coding
Duration : 17 min 10 s
Bit rate mode : Variable
Bit rate : 1 411 kb/s
Width : 1 280 pixels
Height : 720 pixels
Display aspect ratio : 16:9
Frame rate mode : Constant
Frame rate : 30.000 FPS
Color space : RGB
Chroma subsampling : 4:2:0
Bit depth : 8 bits
Scan type : Progressive
Bits/(Pixel*Frame) : 0.051
Stream size : 173 MiB (94%)
Encoded date : UTC 2018-05-21 10:54:36
Tagged date : UTC 2018-05-21 10:54:36
Color range : Limited
Matrix coefficients : Identity

Audio
ID : 2
Format : AAC
Format/Info : Advanced Audio Codec
Format profile : LC
Codec ID : mp4a-40-2
Duration : 17 min 10 s
Bit rate mode : Variable
Bit rate : 86.9 kb/s
Channel(s) : 2 channels
Channel positions : Front: L R
Sampling rate : 44.1 kHz
Frame rate : 43.066 FPS (1024 SPF)
Compression mode : Lossy
Stream size : 10.7 MiB (6%)
Encoded date : UTC 2018-05-21 10:54:36
Tagged date : UTC 2018-05-21 10:54:36

Angel Traders – Forex Strategy Course: Video, PDF´s
Download from rapidgator.net
Angel-Traders-Forex-Strategy-Course.rar
Download from Nitroflare
Angel-Traders-Forex-Strategy-Course.rar
==> Download From Mega.: (FREE DOWNLOAD)
Uploading…!
***If link dead, please leave a message,or to send message to a ebusinesstores@gmail.com We will update immediately***

Leave a Reply

Your email address will not be published. Required fields are marked *

*
*